CPC

Обложка альбома CPCFrom his childhood Vlad was in love with robots. When in Soviet Union first computers appeared small Vlad did everything in his child power to get it. Then to study it. He opened the box, he looked inside for those little gremlins who does all the work. He found none. But he also found out that he can do it himself. Computers understand simple language - programming. Natural language processing turned into writing music for computer games. Later, communication with electronic brains developed into more complex relationship with robots... Vlad fell in love with musical production. All those hardware and Synthesiser devices than can speak on a beautiful musical language! It only needs to be translated it to everyone! And so, simple hobby of musical programming has grown into professional music production that resulted in 3 albums and many, many single tracks released on various record labels. Nowadays, more robots lives in Vlad's apartment. We can be sure Vlad will continue to exhilarate us with his interpretation of robot's language. . User-contributed text is available under the Creative Commons By-SA License; additional terms may apply.
  • Трек: Textura Cpc
  • Исполнитель (артист): BiD
  • Длительность 0:27
  • Формат: mp3
  • Битрейт: 320kbps

У нас на портале вы можете слушать и скачать BiD - Textura Cpc в формате mp3 без смс и без регистрации, на высокой скорости и в хорошем качестве 320 kbit, а также много другой интересной музыки. Скачать CPC рингтон на звонок в высоком качестве, мелодия для мобильного телефона.

  • 💾 Скачать► Слушать
  • Текст песни "BiD - Textura Cpc"

    PERFORMER "CPC"
    TITLE "Subliminal Messages"
    FILE "01-cpc_-_subliminal_messages-upe.mp3" MP3
    TRACK 01 AUDIO
    TITLE "Intro"
    PERFORMER "CPC"
    INDEX 01 00:00:00
    TRACK 02 AUDIO
    TITLE "Copenhagen"
    PERFORMER "CPC"
    INDEX 01 02:35:44
    TRACK 03 AUDIO
    TITLE "Squadazm"
    PERFORMER "CPC"
    INDEX 01 09:26:11
    TRACK 04 AUDIO
    TITLE "Essentuki"
    PERFORMER "CPC"
    INDEX 01 15:23:49
    TRACK 05 AUDIO
    TITLE "Secrets"
    PERFORMER "CPC"
    INDEX 01 21:56:56
    TRACK 06 AUDIO
    TITLE "Kamni"
    PERFORMER "CPC"
    INDEX 01 29:57:11
    TRACK 07 AUDIO
    TITLE "Nahpoh"
    PERFORMER "CPC"
    INDEX 01 36:40:09
    TRACK 08 AUDIO
    TITLE "Piter 26"
    PERFORMER "CPC"
    INDEX 01 46:11:00
    TRACK 09 AUDIO
    TITLE "Lizerd 23"
    PERFORMER "CPC"
    INDEX 01 51:55:67
    TRACK 10 AUDIO
    TITLE "Cykle"
    PERFORMER "CPC"
    INDEX 01 63:08:73
    • 70:40
      CPCSubliminal Messages
    • 6:50
      CPCCopenhagen
    • 7:28
      CPCФреди
    • 10:30
      CPCBoom Tequila
    • 7:32
      CPC-PROJECTУ... КАК МЕНЯ ВСЕ ЗА...БЛО
    • 8:23
      CPCKleika
    • 6:26
      CPCRadio Boga
    • 77:12
      CPC Uber Den Angst
    • 7:32
      CPCDostoevsky
    • 6:49
      CPCReincarnation
    • 5:09
      CPCH2SO4
    • 9:30
      CPCZolod's Requiem
    • 7:06
      CPCТрава по пояс
    • 8:13
      CPCHigh
    • 6:42
      cpckamni
    • 8:13
      CPCSqueezer
    • 9:19
      CPC Lizardmetanoya
    • 8:32
      CPCKamni (Pharmacore Remix)
    • 7:18
      CPCPiter 25
    • 10:32
      CPCYamaas
    • 7:22
      CPCKamni (Claw Rmx) [Dark Psy-Trance 2011]
    • 8:23
      CPCManipulation
    • 6:43
      CPCKamni
    • 7:31
      CPC vs KindzadzaWazup?
    • 8:01
      CPCSecrets
    • 7:31
      CPC da KinDzaDzaWazup?
    • 8:51
      CPC SOJ2009
    • 6:03
      CPCEssentuki
    • 8:00
      CPCSecrets
    • 9:30
      cpcnahpoh
    • 7:22
      CPCKamni (Claw Rmx)
    • 9:19
      CPCLizard Metanoia
    • 7:52
      CPCSchizofiltr
    • 8:13
      CPCHigh дикий треш
    • 6:09
      cpc vs lost edenhochu
    • 5:44
      CPC vs Claw vs Kulu vs Acid GoblinsNarco Tourism
    • 9:21
      CPCFlaish [vk.com/ektoplazma]
    • 5:44
      CPCPiter 26 cтарый добрый трек
    • 7:31
      CpcCykle
    • 7:34
      CPC ProjectZaeblo
    • 4:08
      cpc in gamenikomu ne pokazyvai
    • 10:30
      CPC ProjectBoom Tequila
    • 6:33
      CPCMama
    • 7:20
      CPC vs Lost EdenLa Revolusion
    • 6:33
      CPCEssentuki
    • 6:16
      Jelly Headz & CPCGeorgio Armani
    • 5:44
      CPCMama
    • 6:06
      CPC da ParaSenseVseh Na Myaso (Karmazon rmx)
    • 8:34
      CPCSesas
    • 8:05
      CPC da Lost Eden da NeodequadroPuzzle
    • 5:44
      CPCPiter26
    • 9:30
      CPCNahpoh [vk.com/ektoplazm]
    • 4:33
      CPCFokusnik Metuta
    • 6:57
      CPCCopenhagen
    • 8:12
      CPCKleika
    • 2:00
      net,cpc1thEtap demo
    • 5:35
      cpcLying
    • 2:40
      CPCH2SO4
    • 10:34
      CPCBoom Tequila
    • 4:22
      CPC ProjectFokustnik Metuta
    • 8:17
      CPCKavardak
    • 9:21
      CPCFlaish
    • 7:20
      CPC Vs Far East GhostGround Of Darkness
    • 61:59
      F!GMENT x CPCTRILLINOIS VOL. 3
    • 4:29
      CPCSubliminal Messages
    • 7:31
      CPC & KindzadzaWazup
    • 5:59
      CPCRevelation
    • 3:26
      CPC Traffic Problem
    • 6:33
      CPC ProjectEssentuki
    • 9:19
      CPCLizardmetanoya [Dark psychedelic trance]
    • 8:21
      CPCDont Worry
    • 4:03
      CPC25
    • 6:03
      CPCTuki
    • 6:09
      CPC vs Lost EdenHochu (DARK)
    • 8:09
      CPCLizard Metanoya
    • 6:16
      Jelly Headz & CPCGeorgio Armani [ vk.com/ektoplazma ]
    • 6:49
      CPCReincarnation (Chaotic Harmony-2011)
    • 31:16
      CPCTerror
    • 5:56
      CPCHochu
    • 6:28
      CPC ProjectWindows 2000 Must Die (and Vista too mix by t_error 404)
    • 2:23
      CPCRevelation
    • 5:28
      CPC ProjectMama
    • 7:20
      CPC da Lost EdenLa Revolusion
    • 6:11
      CPC vs Lost Eden doom doom
    • 9:11
      CPCBoom Tequila
    • 11:12
      CPCLizerd 23
    • 6:26
      CPCRadio
    • 8:00
      CPCSecret
    • 6:06
      CPC vs ParasenseVseh na Myaso (Karmazon rmx)
    • 6:16
      CPC & Jelly Headz Georgio Armani
    • 6:50
      ю CPCCopenhagen
    • 7:47
      CPC da Glookanary ExpressOpen Heart
    • 8:34
      CPC Vs Lost EdenNoise Fans
    • 9:31
      CPCZolod's Requiem
    • 6:57
      CPC Begin
    • 7:34
      CPC ProjectЗАЕБЛО
    • 10:46
      CPCGalamut Rmx
    • 10:05
      CPCVideohorror
    • 2:33
      Rob Hubbard (Amstrad CPC)Saboteur 2